» » Как разогнать депозит так быстро с нуля (до 1000$ за 10 дней)

Как разогнать депозит так быстро с нуля (до 1000$ за 10 дней)

3-12-2013, 17:45 | Документальные
Как разогнать депозит так быстро с нуля (до 1000$ за 10 дней)


В этот раз речь пойдет о животрепещущей теме, которая волнует многих начинающих трейдеров на Forex. А именно — Разгон депозита. Всем хочется воплотить в жизнь обещания с лохотрон-сайтов, обещающих, что вы заработаете 1000$ с нуля. Но как этого достичь? Все узнаете на вебинаре.Если говорить вкратце, разгон депо на Forex — это быстрое и многократное увеличение баланса вашего счета. Т.е. было 50$, через день-два стало 200, потом 300, 500 и т.д. Доходность измеряется десятками, а то и сотнями процентов. Весьма заманчиво, не правда ли? Если верить барыгам-лохотронщикам, то вам нужно только купить тупой видеокурс/ чудо-стратегию / супер-робота и все у вас будет в ажуре)) В реальности же, разогнать депозит можно, но это не так просто, как вам обещает реклама в интернете. На вебинаре вы узнаете

Как разогнать депозит так быстро с нуля (до 1000$ за 10 дней)Как разогнать депозит так быстро с нуля (до 1000$ за 10 дней)Как разогнать депозит так быстро с нуля (до 1000$ за 10 дней)
Как разогнать депозит так быстро с нуля (до 1000$ за 10 дней)Как разогнать депозит так быстро с нуля (до 1000$ за 10 дней)Как разогнать депозит так быстро с нуля (до 1000$ за 10 дней)

Плюсы и минусы разгона депозита
Конкретные методики
Секретные фишки
Подводные камни
И самое главное — Зачем нужен разгон депозита. (Позже поймете, почему этот пункт важен)
А также будут секретные бонусы и ответы на вопросы. Все онлайн, в прямом эфире.

Format : MPEG-4
Format profile : Base Media / Version 2
Codec ID : mp42
File size : 352 MiB
Duration : 52mn 43s
Overall bit rate mode : Variable
Overall bit rate : 933 Kbps
Encoded date : UTC 2013-11-27 05:45:26
Tagged date : UTC 2013-11-27 05:45:26
gsst : 0
gstd : 3163115
gssd : BADC23ACBHH1385897438615792
gshh : r11---sn-n8v7lnel.googlevideo.com

Video
ID : 1
Format : AVC
Format/Info : Advanced Video Codec
Format profile : High@L3.1
Format settings, CABAC : Yes
Format settings, ReFrames : 1 frame
Format settings, GOP : M=1, N=60
Codec ID : avc1
Codec ID/Info : Advanced Video Coding
Duration : 52mn 43s
Bit rate : 738 Kbps
Maximum bit rate : 5 973 Kbps
Width : 1 280 pixels
Height : 720 pixels
Display aspect ratio : 16:9
Frame rate mode : Constant
Frame rate : 30.000 fps
Color space : YUV
Chroma subsampling : 4:2:0
Bit depth : 8 bits
Scan type : Progressive
Bits/(Pixel*Frame) : 0.027
Stream size : 278 MiB (79%)
Tagged date : UTC 2013-11-27 05:47:37

Audio
ID : 2
Format : AAC
Format/Info : Advanced Audio Codec
Format profile : LC
Codec ID : 40
Duration : 52mn 43s
Bit rate mode : Variable
Bit rate : 192 Kbps
Maximum bit rate : 201 Kbps
Channel count : 2 channels
Channel positions : Front: L R
Sampling rate : 44.1 KHz
Compression mode : Lossy
Stream size : 72.4 MiB (21%)
Title : IsoMedia File Produced by Google, 5-11-2011
Encoded date : UTC 2013-11-27 05:46:38
Tagged date : UTC 2013-11-27 05:47:37
Размер: 108,11 Мб

Download/Скачать : Как разогнать депозит так быстро с нуля (до 1000$ за 10 дней)

Вы зашли на сайт noin.ru, чтобы бесплатно скачать Как разогнать депозит так быстро с нуля (до 1000$ за 10 дней). Вам представлены в основном бесплатные ссылки для скачивания данного файла. В случае, если Вас не устраивает скорость или какая-то ссылка не работает, Вы можете скачать платно, отправив смс, что позволит Вам не тратить нервы, бороздя просторы Интернета, чтобы скачать Как разогнать депозит так быстро с нуля (до 1000$ за 10 дней) бесплатно без регистрации!
Похожие новости из категории "Документальные": Как разогнать депозит так быстро с нуля (до 1000$ за 10 дней)

Информация

Посетители, находящиеся в группе Гости, не могут оставлять комментарии к данной публикации.

Логин:  
Пароль:

Регистрация | Забыли пароль?

Реклама